<?xml version="1.0" standalone="no"?>
<!DOCTYPE svg PUBLIC "-//W3C//DTD SVG 1.1//EN" "http://www.w3.org/Graphics/SVG/1.1/DTD/svg11.dtd">
<svg xmlns="http://www.w3.org/2000/svg">
<defs >
<font id="Lekton" horiz-adv-x="500" ><font-face
    font-family="Lekton"
    units-per-em="1000"
    panose-1="2 0 0 0 0 0 0 0 0 0"
    ascent="750"
    descent="-250"
    alphabetic="0" />
<glyph unicode=" " glyph-name="space" />
<glyph unicode="!" glyph-name="exclam" d="M195 -6V80H271V-6H195ZM209 188L200 688H266L257 188H209Z" />
<glyph unicode="&quot;" glyph-name="quotedbl" d="M143 463V680H196V463H143ZM303 463V680H356V463H303Z" />
<glyph unicode="#" glyph-name="numbersign" d="M312 236L334 438H190L168 236H312ZM477 192H359L338 0H285L307 192H163L141 0H89L111 192H0V236H116L138 438H23V481H142L161 655H213L194 481H339L357 655H409L391 481H500V438H386L364 236H477V192Z" />
<glyph unicode="$" glyph-name="dollar" d="M252 592Q115 592 115 482Q115 428 145 401T263 353T392 293T433 175T385 48T258 -7V-92H208V-8Q140 -4 55 21L68 71Q165 42 228 42T333 77T374 174T345 260T225 307T95 367T55 478T101 593T216 641V725H267V642Q346
639 424 611L410 561Q324 592 252 592Z" />
<glyph unicode="%" glyph-name="percent" d="M359 665H415L138 0H82L359 665ZM0 465T0 525T35 620T123 655T211 620T246 525T211 430T123 395T35 430ZM48 565T48 525T69 463T123 441T176 463T198 525T177 587T123 609T70 587ZM253 70T253 130T288 225T376 260T464
225T499 130T464 35T376 0T288 35ZM301 170T301 130T322 68T376 46T429 68T451 130T430 192T376 214T323 192Z" />
<glyph unicode="&amp;" glyph-name="ampersand" d="M5 197Q5 340 161 401Q112 480 112 535T151 628T252 665T353 629T391 535T359 441T243 366L376 159Q412 234 440 365L489 357Q465 225 409 117Q422 96 442 70L489 11L450 -21Q402 35 375 76Q299 -10 207 -10T60
44T5 197ZM282 430T308 459T335 531T313 594T253 616T192 594T168 536T179 474T219 406Q282 430 308 459ZM62 197Q62 123 100 81T205 39Q242 39 281 60T346 115L184 362Q62 311 62 197Z" />
<glyph unicode="&apos;" glyph-name="quotesingle" d="M221 463V680H274V463H221Z" />
<glyph unicode="(" glyph-name="parenleft" d="M259 -54T220 57T180 318T219 579T332 796L374 769Q308 672 272 568T235 319T272 68T374 -132L332 -160Q259 -54 220 57Z" />
<glyph unicode=")" glyph-name="parenright" d="M191 -37T228 68T265 318T229 568T126 769L168 796Q241 691 280 580T320 319T281 58T168 -160L126 -132Q191 -37 228 68Z" />
<glyph unicode="*" glyph-name="asterisk" d="M70 505V550H218L173 690L218 705L262 563L381 650L408 614L288 526L408 441L380 402L261 490L215 350L170 366L217 505H70Z" />
<glyph unicode="+" glyph-name="plus" d="M475 260H274V61H224V260H24V306H224V504H274V306H475V260Z" />
<glyph unicode="," glyph-name="comma" d="M173 0V112H268V30Q268 -60 191 -143L164 -119Q209 -53 213 0H173Z" />
<glyph unicode="-" glyph-name="hyphen" d="M110 213V267H397V213H110Z" />
<glyph unicode="." glyph-name="period" d="M175 0V121H285V0H175Z" />
<glyph unicode="/" glyph-name="slash" d="M25 -25L438 704L475 682L61 -47L25 -25Z" />
<glyph unicode="0" glyph-name="zero" d="M58 494T103 569T249 644T396 569T441 319T396 67T250 -9T103 67T58 318ZM177 43T249 43T349 107T377 319T350 530T250 592T150 530T122 319T149 107Z" />
<glyph unicode="1" glyph-name="one" d="M454 0H79V51H250V571L85 495L62 548L256 635H309V51H454V0Z" />
<glyph unicode="2" glyph-name="two" d="M340 277Q302 241 264 208Q166 124 139 57H448V0H73V49Q91 100 128 147T205 228L281 296Q365 374 365 459Q365 518 330 554T243 591T93 524L65 566Q170 643 246 643T373 595T424 453T340 277Z" />
<glyph unicode="3" glyph-name="three" d="M136 293L129 338L201 349Q282 361 321 392T361 481T326 564T234 591T78 547L59 594Q98 613 151 628T239 643Q321 643 369 604T418 485Q418 429 396 398T321 340V338Q444 312 444 175Q444 -10 237 -10Q154 -10 46 30L64
81Q165 42 235 42T345 75T385 175T351 273T245 305L136 293Z" />
<glyph unicode="4" glyph-name="four" d="M459 179V127H369V-10H314V127H43V174L207 634H264L105 179H314V389H369V179H459Z" />
<glyph unicode="5" glyph-name="five" d="M347 405T396 353T446 204T392 49T238 -10Q159 -10 57 32L76 83Q168 42 239 42T349 87T388 205T353 315T252 353T118 295L81 306L91 634H425V579H141L134 362Q194 405 257 405Q347 405 396 353Z" />
<glyph unicode="6" glyph-name="six" d="M352 404T403 353T454 204T402 48T256 -10T108 47T54 214T85 403T181 538T359 651L381 602Q251 537 198 481T122 340Q186 404 255 404Q352 404 403 353ZM396 205Q396 352 255 352Q196 352 154 311T112 208Q112 42 255 42Q324
42 360 85T396 205Z" />
<glyph unicode="7" glyph-name="seven" d="M56 529L75 634H430V578Q424 518 317 327Q278 257 246 166T213 0H154Q154 77 186 172Q218 266 258 338L334 480Q370 550 373 582H119L105 525L56 529Z" />
<glyph unicode="8" glyph-name="eight" d="M50 166Q50 284 156 324Q63 370 63 472Q63 548 112 595T252 643T392 596T441 472Q441 365 347 326Q455 286 455 166Q455 85 403 38T252 -10T102 37T50 166ZM183 299T146 264T108 168T145 74T252 41T359 74T397 168T360
264T253 299ZM185 592T153 560T120 473T152 384T252 349T352 382T384 471T352 560T252 592Z" />
<glyph unicode="9" glyph-name="nine" d="M165 239T114 290T63 435T117 586T261 643T403 588T454 435Q454 300 407 200T254 -17L187 -6Q281 96 322 162T386 303Q322 239 258 239Q165 239 114 290ZM121 438Q121 291 258 291Q317 291 356 332T396 435Q396 591 259
591Q194 591 158 549T121 438Z" />
<glyph unicode=":" glyph-name="colon" d="M174 0V121H284V0H174ZM174 290V411H284V290H174Z" />
<glyph unicode=";" glyph-name="semicolon" d="M173 303V405H265V303H173ZM173 0V112H268V30Q268 -60 191 -143L164 -119Q209 -53 213 0H173Z" />
<glyph unicode="&lt;" glyph-name="less" d="M450 502L104 292L449 72L423 31L44 276V308L423 543L450 502Z" />
<glyph unicode="=" glyph-name="equal" d="M25 207H474V163H25V207ZM25 375H474V331H25V375Z" />
<glyph unicode="&gt;" glyph-name="greater" d="M390 292L44 502L71 543L450 308V276L71 31L45 72L390 292Z" />
<glyph unicode="?" glyph-name="question" d="M195 -6V87H280V-6H195ZM329 683T377 644T426 540T408 440T337 355T271 283T257 229T259 161L207 159Q199 191 199 233T216 303T286 381T353 459T368 532T338 604T262 631T182 613T98 556L68 597Q124 641 166 662T256
683Q329 683 377 644Z" />
<glyph unicode="@" glyph-name="at" d="M176 -109T116 -29T55 206T116 443T292 525Q339 525 378 516T434 496L451 487V54Q394 27 311 27Q179 27 181 216Q182 280 206 330Q235 390 311 389Q352 389 397 377V458Q359 477 292 477Q207 477 158 409T108 207T157 7T276
-60T432 -33L445 -81Q363 -109 281 -109Q176 -109 116 -29ZM235 216Q235 148 251 112T317 76Q346 76 386 84L397 87V325Q372 339 313 339Q235 339 235 216Z" />
<glyph unicode="A" glyph-name="A" d="M17 0L205 655H301L482 0H423L382 151H117L75 0H17ZM369 201L261 605H244L131 201H369Z" />
<glyph unicode="B" glyph-name="B" d="M67 0V655H221Q331 655 384 616T438 485Q438 371 327 337Q393 322 424 287T456 185Q456 79 396 40T212 0H67ZM398 185Q398 307 232 307H122V49H212Q305 49 351 78T398 185ZM328 588Q285 606 221 606H122V356H229Q292 356
336 384T381 489T328 588Z" />
<glyph unicode="C" glyph-name="C" d="M167 -10T111 70T55 327T109 584T282 665Q360 665 439 640V508H384V597Q340 613 282 613Q192 613 153 546T114 329T156 111T282 43Q345 43 432 70L445 18Q363 -10 281 -10Q167 -10 111 70Z" />
<glyph unicode="D" glyph-name="D" d="M60 0V655H194Q268 655 315 641T396 589T443 489T458 328T442 166T391 65T309 15T192 0H60ZM354 94T376 154T399 327T377 500T313 583T194 605H115V50H192Q269 50 311 72Z" />
<glyph unicode="E" glyph-name="E" d="M82 0V655H423V606H137V358H396V309H137V49H426V0H82Z" />
<glyph unicode="F" glyph-name="F" d="M86 0V655H428V604H141V318H387V268H141V0H86Z" />
<glyph unicode="G" glyph-name="G" d="M150 -10T94 70T38 327T93 585T272 665Q353 665 442 633L428 582Q337 613 272 613Q178 613 138 547T97 330T139 111T266 42Q317 42 389 66V266H276V315H444V27Q341 -10 266 -10Q150 -10 94 70Z" />
<glyph unicode="H" glyph-name="H" d="M54 0V655H109V351H391V655H446V0H391V300H109V0H54Z" />
<glyph unicode="I" glyph-name="I" d="M111 0V50H224V605H111V655H390V605H279V50H390V0H111Z" />
<glyph unicode="J" glyph-name="J" d="M312 605V215Q312 79 289 35T178 -11Q161 -11 119 -5T58 6L69 58Q137 41 183 41T243 71T257 218V605H96V655H363V605H312Z" />
<glyph unicode="K" glyph-name="K" d="M390 655H453Q353 455 274 337Q304 292 350 208L460 0H393Q281 219 227 305L126 295V0H71V655H126V346L223 356Q294 464 364 604L390 655Z" />
<glyph unicode="L" glyph-name="L" d="M419 51V0H91V655H146V51H419Z" />
<glyph unicode="M" glyph-name="M" d="M48 0V655H101L242 288H257L398 655H451V0H397V508H393L288 237H211L106 509H102V0H48Z" />
<glyph unicode="N" glyph-name="N" d="M394 0V103L109 551H106V0H51V655H105L391 202H394V655H449V0H394Z" />
<glyph unicode="O" glyph-name="O" d="M40 334Q40 412 50 469Q60 526 82 572Q127 665 250 665Q390 664 434 534Q460 459 460 358T450 196T418 88Q372 -10 250 -10Q130 -10 83 88Q40 177 40 334ZM401 326Q401 380 399 413T387 486T363 552T319 595T250 613T182
596T138 552T113 486Q99 424 99 349T104 227T125 135Q156 42 250 42Q346 42 376 136Q402 216 401 326Z" />
<glyph unicode="P" glyph-name="P" d="M216 240H124V0H69V655H216Q336 655 393 610T451 452T393 290T216 240ZM216 605H124V290H216Q308 290 350 327T393 451T351 571T216 605Z" />
<glyph unicode="Q" glyph-name="Q" d="M425 -73L360 20Q316 -10 253 -10T148 15T83 88Q40 178 40 336Q40 582 146 642Q188 666 243 666T336 649T396 605Q420 576 434 534Q460 459 460 336Q460 140 398 58L457 -30L425 -73ZM102 428T101 400T99 323T104 227T125
134Q156 41 250 41Q294 41 324 63L268 118L293 170L360 102Q401 171 401 336Q402 466 378 522Q352 584 309 602Q283 614 250 614T191 603T149 569T123 522T107 463Z" />
<glyph unicode="R" glyph-name="R" d="M268 269Q214 266 198 266H116V0H61V655H208Q330 655 387 613T444 465Q444 394 416 351T324 281Q392 152 448 0H388Q333 146 268 269ZM206 605H116V316H196Q288 316 337 349T386 465T343 576T206 605Z" />
<glyph unicode="S" glyph-name="S" d="M137 336T96 377T54 498T108 621T249 665T424 634L410 583Q327 613 258 613T151 584T114 498T144 413T263 361T393 299T433 175T376 40T227 -10Q159 -10 55 19L68 70Q170 42 232 42T334 76T374 173T345 264T227 314Z" />
<glyph unicode="T" glyph-name="T" d="M48 604V655H450V604H276V0H221V604H48Z" />
<glyph unicode="U" glyph-name="U" d="M54 189V655H109V196Q109 42 250 42Q321 42 356 84T391 196V655H446V189Q446 92 396 41T248 -10T103 43T54 189Z" />
<glyph unicode="V" glyph-name="V" d="M43 655H102L247 49H257L401 655H459L298 0H204L43 655Z" />
<glyph unicode="W" glyph-name="W" d="M75 0L2 655H59L126 50H137L225 366H278L362 50H374L441 655H498L425 0H324L252 282H249L174 0H75Z" />
<glyph unicode="X" glyph-name="X" d="M239 287L112 0H44L205 336L52 655H122L244 385H246L367 655H434L280 336L450 0H378L241 287H239Z" />
<glyph unicode="Y" glyph-name="Y" d="M276 283V0H222V283L29 655H95L248 340H250L403 655H469L276 283Z" />
<glyph unicode="Z" glyph-name="Z" d="M70 605V655H430V615L135 50H446V0H70V40L364 605H70Z" />
<glyph unicode="[" glyph-name="bracketleft" d="M174 -156V793H380V743H231V-106H380V-156H174Z" />
<glyph unicode="\" glyph-name="backslash" d="M16 688L53 710L466 -19L430 -41L16 688Z" />
<glyph unicode="]" glyph-name="bracketright" d="M120 -156V-106H269V743H120V793H326V-156H120Z" />
<glyph unicode="_" glyph-name="underscore" d="M0 -128V-85H500V-128H0Z" />
<glyph unicode="a" glyph-name="a" d="M218 43Q255 43 298 66T362 110V229Q296 234 236 234T146 209T116 140Q116 43 218 43ZM217 -9Q144 -9 102 28T60 135T106 242Q152 281 228 281T362 275Q362 364 340 396T251 429T93 397L78 447Q171 481 246 481Q345 481 380
437T415 283V73L423 -3L372 -8L362 52Q339 32 297 12T217 -9Z" />
<glyph unicode="b" glyph-name="b" d="M77 0V664H130V429Q205 481 266 481Q356 481 405 420T454 244T399 61T249 -9Q191 -9 129 20L127 0H77ZM397 331T363 380T263 429T130 372V72Q151 62 187 53T247 43Q317 43 357 99T397 243Z" />
<glyph unicode="c" glyph-name="c" d="M359 320V419Q310 430 281 430Q209 430 174 379T138 238T174 96T281 43Q326 43 406 71L421 21Q342 -9 282 -9Q184 -9 133 56T81 239T132 418T282 481Q348 481 413 460V320H359Z" />
<glyph unicode="d" glyph-name="d" d="M428 664V83L438 -4L387 -10L377 43Q302 -9 239 -9Q150 -9 101 57T51 236T106 415T256 481Q312 481 375 454V664H428ZM108 150T142 97T242 43T375 100V400Q354 410 318 419T258 429Q187 429 148 378T108 238Z" />
<glyph unicode="e" glyph-name="e" d="M67 352T114 416T253 481T388 421T433 261L430 211H124Q129 136 164 90T260 43T405 72L420 22Q339 -9 268 -9Q170 -9 119 56T67 237ZM257 430Q131 430 124 261H376Q376 430 257 430Z" />
<glyph unicode="f" glyph-name="f" d="M180 425H85V475H180Q180 673 327 673Q375 673 433 656L421 605Q365 621 329 621Q277 621 255 586T233 475H414V425H233V50H416V0H81V50H180V425Z" />
<glyph unicode="g" glyph-name="g" d="M428 115L431 -23Q431 -112 378 -156T245 -200T65 -160L83 -110Q182 -148 240 -148T338 -118T378 -24Q378 -16 377 11T375 52Q302 1 239 1Q149 1 101 62T52 237T106 416T256 481Q309 481 375 446L377 475H428V115ZM109 151T143
102T242 53T375 110V390Q313 429 258 429Q187 429 148 378T109 239Z" />
<glyph unicode="h" glyph-name="h" d="M131 388V0H78V664H131V439Q225 481 286 481Q429 481 429 317V0H376V317Q376 368 354 398T278 429T131 388Z" />
<glyph unicode="i" glyph-name="i" d="M123 425V475H292V50H408V0H115V50H239V425H123ZM243 571T231 583T218 615T230 646T261 658T290 647T302 616T291 584T261 571Z" />
<glyph unicode="j" glyph-name="j" d="M332 475V-10Q332 -104 285 -138T117 -188L111 -136Q210 -122 244 -99T279 -10V426H152V475H332ZM252 616Q252 659 296 659Q338 658 338 614T296 570Q275 570 264 582T252 616Z" />
<glyph unicode="k" glyph-name="k" d="M359 475H419Q349 362 258 253Q320 165 425 0H365Q285 130 220 221L150 212V0H97V664H150V260L215 270Q286 362 359 475Z" />
<glyph unicode="l" glyph-name="l" d="M109 614L108 663L281 664V50H403V0H105V50H228V615L109 614Z" />
<glyph unicode="m" glyph-name="m" d="M85 475L88 445Q138 481 165 481Q231 481 256 438Q312 481 354 481Q419 481 443 441T467 318V0H414V318Q414 375 402 402T356 430T272 398Q278 364 278 318V152H225V318Q225 375 213 402Q200 430 166 430T88 398V0H35V475H85Z" />
<glyph unicode="n" glyph-name="n" d="M127 475L129 435Q226 481 290 481T390 437T427 317V0H374V317Q374 366 350 398Q326 429 278 429T129 385V0H76V475H127Z" />
<glyph unicode="o" glyph-name="o" d="M59 481T250 481T441 236T250 -9T59 236ZM116 429T116 236T250 43T384 236T250 429Z" />
<glyph unicode="p" glyph-name="p" d="M77 -192V389L68 476L118 482L127 428Q200 481 266 481Q355 481 404 416T453 237T399 57T249 -9Q193 -9 130 18V-192H77ZM396 324T362 376T265 429T130 372V72Q151 62 187 53T247 43Q318 43 357 95T396 235Z" />
<glyph unicode="q" glyph-name="q" d="M428 475V-190H375V42Q302 -9 239 -9Q150 -9 101 57T52 237T106 416T256 481Q309 481 375 446L377 475H428ZM109 149T143 96T242 43T375 100V390Q313 429 258 429Q187 429 148 378T109 238Z" />
<glyph unicode="r" glyph-name="r" d="M91 425V475H238L240 417Q272 437 330 457T432 481V422Q391 419 331 402T240 367V50H400V0H91V50H185V425H91Z" />
<glyph unicode="s" glyph-name="s" d="M78 23L91 75Q190 42 244 42T327 65T357 128T334 185T236 221T125 270Q88 300 88 360T133 451T251 483T407 451L393 404Q308 432 256 432T174 414Q144 394 144 360T170 307T273 269T381 221T413 128T370 28Q328 -9 250 -9T78 23Z" />
<glyph unicode="t" glyph-name="t" d="M160 418H76V468H160V583L213 593V468H403V418H213V184Q213 106 228 74T292 42T398 61L410 11Q352 -10 302 -10T224 3T182 44T164 103T160 182V418Z" />
<glyph unicode="u" glyph-name="u" d="M374 0L372 41Q276 -9 212 -9T111 35T74 155V475H127V155Q127 106 150 75T222 43T372 93V475H425V0H374Z" />
<glyph unicode="v" glyph-name="v" d="M53 475H113L244 48H262L388 475H448L303 0H203L53 475Z" />
<glyph unicode="w" glyph-name="w" d="M413 475H465L408 0H302L251 207H247L195 0H90L35 475H87L139 48H157L224 289H276L343 48H361L413 475Z" />
<glyph unicode="x" glyph-name="x" d="M60 475H129L250 279L370 475H437L287 241L446 0H378L250 203L123 0H55L216 241L60 475Z" />
<glyph unicode="y" glyph-name="y" d="M53 475H113L254 71H262L388 475H448L264 -81Q238 -160 210 -182T94 -206V-155Q150 -154 169 -139T204 -76L227 -7L53 475Z" />
<glyph unicode="z" glyph-name="z" d="M87 425V475H413L418 434L149 50H421V0H86L78 41L346 425H87Z" />
<glyph unicode="{" glyph-name="braceleft" d="M104 300V352L194 398Q194 482 189 573T184 694Q184 793 282 793H390V743H287Q241 743 241 688Q241 655 246 552T251 366L161 330V322L251 285Q251 211 246 102T241 -51Q241 -106 287 -106H390V-156H282Q184 -156
184 -57Q184 -17 189 81T194 253L104 300Z" />
<glyph unicode="|" glyph-name="bar" d="M277 743V-244H224V743H277Z" />
<glyph unicode="}" glyph-name="braceright" d="M94 -156V-106H197Q243 -106 243 -51Q243 -8 238 101T233 285L323 322V329L233 366Q233 449 238 552T243 688Q243 743 197 743H94V793H202Q300 793 300 694Q300 664 295 573T290 398L380 351V300L290 253Q290 179
295 81T300 -57Q300 -156 202 -156H94Z" />
<glyph unicode="~" glyph-name="asciitilde" d="M439 316L474 286Q437 246 410 227T350 208T280 227T209 266T152 286Q120 287 62 224L26 255Q99 333 152 333Q192 333 258 294Q324 255 352 255T439 316Z" />
<glyph unicode="&#xa1;" glyph-name="exclamdown" d="M260 502V416H184V502H260ZM246 308L255 -192H189L198 308H246Z" />
<glyph unicode="&#xa2;" glyph-name="cent" d="M81 237Q81 461 253 479V549H306V480Q360 475 404 462L391 412Q337 430 281 430Q209 430 174 379T138 238T174 95T281 42Q326 42 406 70L421 20Q363 -2 308 -8V-72H255V-8Q169 1 125 65T81 237Z" />
<glyph unicode="&#xa3;" glyph-name="sterling" d="M56 307V358H125Q103 411 103 465Q103 553 149 598T283 644Q344 644 417 625L408 575Q342 593 280 593T188 562T159 468T180 358H379V307H199Q200 305 206 286L216 260Q224 234 224 206Q224 141 137 67Q137 66
137 66T138 65Q158 75 181 75T226 72T285 54T347 40T394 48Q418 54 430 62L442 70L465 25Q418 -11 345 -11Q318 -12 278 2Q221 22 186 22Q127 22 97 -2L87 -10L55 47L68 58Q131 114 156 162Q168 186 168 215T144 307H56Z" />
<glyph unicode="&#xa4;" glyph-name="currency" d="M130 527Q244 607 365 526L432 608L472 576L403 493Q452 436 452 358T404 222L473 137L432 103L362 187Q304 149 251 149T133 187L63 104L22 137L91 222Q42 280 42 358T92 494L23 576L63 608L130 527ZM95 422T95
357T139 248T245 203T358 249Q401 292 401 357T356 467T249 513T141 468Z" />
<glyph unicode="&#xa5;" glyph-name="yen" d="M65 361H201L29 655H98L250 375H252L406 655H469L300 361H434V311H278V218H434V168H278V0H223V168H65V218H223V311H65V361Z" />
<glyph unicode="&#xa6;" glyph-name="brokenbar" d="M276 195V-244H223V195H276ZM276 742V303H223V742H276Z" />
<glyph unicode="&#xa7;" glyph-name="section" d="M158 221T118 251T78 339T140 437Q88 468 88 536T133 637T253 671T407 641L393 592Q304 621 253 621Q144 621 144 540Q144 504 170 485T276 446T389 400T423 315T373 208Q409 181 409 122T366 27T248 -9T78 23L91
75Q193 41 245 41T325 62T353 117T334 167T236 202ZM134 346Q134 325 139 312T163 290Q180 280 198 274L256 256Q296 244 329 231Q369 274 369 317Q369 345 342 364T264 394T184 416Q134 382 134 346Z" />
<glyph unicode="&#xa9;" glyph-name="copyright" d="M130 -6T70 66T10 271T72 476T251 549Q490 549 490 270Q490 133 426 64T246 -6ZM55 270Q55 145 105 90T251 34Q445 34 445 270Q445 397 395 453T251 509Q55 509 55 270ZM183 210T199 190T249 170T320 181L332
140Q298 126 257 126Q190 126 161 157T132 270T158 388T249 424Q290 424 332 410L320 369Q289 380 251 380T198 357T183 273Z" />
<glyph unicode="&#xaa;" glyph-name="ordfeminine" d="M219 504T202 491T185 454T199 415T247 400T320 435V502Q278 504 249 504ZM372 365Q332 360 328 360L322 393Q277 358 235 358T166 382T139 451T167 519T245 543T320 540Q320 587 307 605T260 623T161 600L148
641Q213 665 265 665T342 637T366 539V415L372 365Z" />
<glyph unicode="&#xab;" glyph-name="guillemotleft" d="M70 248L267 417V352L122 226L267 103V39L70 208V248ZM242 248L439 417V352L294 226L439 103V39L242 208V248Z" />
<glyph unicode="&#xac;" glyph-name="logicalnot" d="M36 452H468V231H414V398H36V452Z" />
<glyph unicode="&#xae;" glyph-name="registered" d="M138 192T69 260T0 441T68 621T250 689T431 621T500 441T432 260T251 192ZM40 536T40 441T97 289T249 231T401 288T459 440T402 593T250 651T98 594ZM156 300V592H236Q300 592 330 572T360 501Q360 428 301
413Q328 374 350 318L357 300H311Q290 359 261 405H196V300H156ZM283 443T300 453T318 499T300 544T233 554H196V443H229Q283 443 300 453Z" />
<glyph unicode="&#xb0;" glyph-name="degree" d="M111 501T111 560T150 656T250 693T349 656T388 560T350 463T250 426T150 463ZM286 471T310 495T335 559T312 624T248 649T186 626T164 561T187 496T248 471Z" />
<glyph unicode="&#xb1;" glyph-name="plusminus" d="M485 298H275V146H225V298H15V341H225V502H275V341H485V298ZM485 54H15V96H485V54Z" />
<glyph unicode="&#xb5;" glyph-name="mu" d="M75 -49V475H128V154Q128 105 151 74T224 42T370 90V475H423V0H372L370 38Q272 -10 218 -10Q187 -10 161 2T121 33L126 -31V-52Q126 -142 96 -192L54 -173Q67 -141 71 -119T75 -49Z" />
<glyph unicode="&#xb6;" glyph-name="paragraph" d="M455 0H420V700H455V0ZM295 0H260V264Q146 273 93 318T40 479T92 647T260 700H295V0ZM260 296V668Q213 667 184 661T127 634Q75 596 75 475Q75 377 118 341T260 296Z" />
<glyph unicode="&#xb7;" glyph-name="middot" d="M247 245Q202 245 202 302T247 359T293 300Q293 271 283 258T247 245Z" />
<glyph unicode="&#xba;" glyph-name="ordmasculine" d="M188 358T156 399T124 512T155 625T247 665Q372 665 372 513Q372 440 340 399T248 358ZM286 400T305 425T324 512T305 598T248 623T191 598T172 513Q172 400 247 400Q286 400 305 425Z" />
<glyph unicode="&#xbb;" glyph-name="guillemotright" d="M242 417L439 248V208L242 39V103L387 226L242 352V417ZM70 417L267 248V208L70 39V103L215 226L70 352V417Z" />
<glyph unicode="&#xbf;" glyph-name="questiondown" d="M299 489V396H214V489H299ZM165 -200T117 -161T68 -57T86 43T157 128T223 200T237 254T235 322L287 324Q295 292 295 250T278 180T208 102T141 24T126 -49T156 -121T232 -148T312 -130T396 -73L426 -114Q370
-158 328 -179T238 -200Q165 -200 117 -161Z" />
<glyph unicode="&#xc0;" glyph-name="Agrave" d="M148 883L352 795L335 753L129 837L148 883ZM17 0L205 655H301L482 0H423L382 151H117L75 0H17ZM369 201L261 605H244L131 201H369Z" />
<glyph unicode="&#xc1;" glyph-name="Aacute" d="M164 794L368 882L387 836L181 752L164 794ZM17 0L205 655H301L482 0H423L382 151H117L75 0H17ZM369 201L261 605H244L131 201H369Z" />
<glyph unicode="&#xc2;" glyph-name="Acircumflex" d="M107 752L233 882H273L399 752H341L253 842L165 752H107ZM17 0L205 655H301L482 0H423L382 151H117L75 0H17ZM369 201L261 605H244L131 201H369Z" />
<glyph unicode="&#xc3;" glyph-name="Atilde" d="M379 859L404 826Q354 771 320 771T248 798Q210 825 188 825T123 784L95 818Q152 872 188 872T262 846T318 819T379 859ZM17 0L205 655H301L482 0H423L382 151H117L75 0H17ZM369 201L261 605H244L131 201H369Z" />
<glyph unicode="&#xc4;" glyph-name="Adieresis" d="M117 797T117 812T127 838T153 849T179 838T189 812T179 786T153 775T127 786ZM310 797T310 812T320 838Q330 849 346 849T372 838T383 812T373 786T346 775T320 786ZM17 0L205 655H301L482 0H423L382 151H117L75
0H17ZM369 201L261 605H244L131 201H369Z" />
<glyph unicode="&#xc5;" glyph-name="Aring" d="M297 914T325 889T354 819T326 749T250 723T174 748T145 818T173 888T249 914ZM187 818Q187 791 203 776T249 761T294 776T311 818Q311 875 249 875T187 818ZM17 0L205 655H301L482 0H423L382 151H117L75 0H17ZM369
201L261 605H244L131 201H369Z" />
<glyph unicode="&#xc6;" glyph-name="AE" d="M16 0L206 655H478V607H314V357H451V309H314V48H481V0H259V151H116L74 0H16ZM259 201V608H248L130 201H259Z" />
<glyph unicode="&#xc7;" glyph-name="Ccedilla" d="M307 -57T332 -80T358 -148T333 -217T265 -242Q242 -242 202 -235L207 -192Q227 -197 254 -197Q307 -197 307 -148Q307 -101 254 -101Q236 -101 211 -106L205 -65Q237 -57 272 -57ZM167 -10T111 70T55 327T109
584T282 665Q360 665 439 640V508H384V597Q340 613 282 613Q192 613 153 546T114 329T156 111T282 43Q345 43 432 70L445 18Q363 -10 281 -10Q167 -10 111 70Z" />
<glyph unicode="&#xc8;" glyph-name="Egrave" d="M157 883L361 795L344 753L138 837L157 883ZM82 0V655H423V606H137V358H396V309H137V49H426V0H82Z" />
<glyph unicode="&#xc9;" glyph-name="Eacute" d="M148 794L352 882L371 836L165 752L148 794ZM82 0V655H423V606H137V358H396V309H137V49H426V0H82Z" />
<glyph unicode="&#xca;" glyph-name="Ecircumflex" d="M107 752L233 882H273L399 752H341L253 842L165 752H107ZM82 0V655H423V606H137V358H396V309H137V49H426V0H82Z" />
<glyph unicode="&#xcb;" glyph-name="Edieresis" d="M117 797T117 812T127 838T153 849T179 838T189 812T179 786T153 775T127 786ZM310 797T310 812T320 838Q330 849 346 849T372 838T383 812T373 786T346 775T320 786ZM82 0V655H423V606H137V358H396V309H137V49H426V0H82Z"
/>
<glyph unicode="&#xcc;" glyph-name="Igrave" d="M151 883L355 795L338 753L132 837L151 883ZM111 0V50H224V605H111V655H390V605H279V50H390V0H111Z" />
<glyph unicode="&#xcd;" glyph-name="Iacute" d="M141 794L345 882L364 836L158 752L141 794ZM111 0V50H224V605H111V655H390V605H279V50H390V0H111Z" />
<glyph unicode="&#xce;" glyph-name="Icircumflex" d="M107 752L233 882H273L399 752H341L253 842L165 752H107ZM111 0V50H224V605H111V655H390V605H279V50H390V0H111Z" />
<glyph unicode="&#xcf;" glyph-name="Idieresis" d="M117 797T117 812T127 838T153 849T179 838T189 812T179 786T153 775T127 786ZM310 797T310 812T320 838Q330 849 346 849T372 838T383 812T373 786T346 775T320 786ZM111 0V50H224V605H111V655H390V605H279V50H390V0H111Z"
/>
<glyph unicode="&#xd0;" glyph-name="Eth" d="M80 0V303H26V357H80V655H194Q268 655 315 641T396 589T443 489T458 328T442 166T391 65T309 15T192 0H80ZM354 94T376 154T399 327T377 500T313 583T194 605H135V357H253V303H135V50H192Q269 50 311 72Z" />
<glyph unicode="&#xd1;" glyph-name="Ntilde" d="M379 859L404 826Q354 771 320 771T248 798Q210 825 188 825T123 784L95 818Q152 872 188 872T262 846T318 819T379 859ZM394 0V103L109 551H106V0H51V655H105L391 202H394V655H449V0H394Z" />
<glyph unicode="&#xd2;" glyph-name="Ograve" d="M160 883L364 795L347 753L141 837L160 883ZM40 334Q40 412 50 469Q60 526 82 572Q127 665 250 665Q390 664 434 534Q460 459 460 358T450 196T418 88Q372 -10 250 -10Q130 -10 83 88Q40 177 40 334ZM401 326Q401
380 399 413T387 486T363 552T319 595T250 613T182 596T138 552T113 486Q99 424 99 349T104 227T125 135Q156 42 250 42Q346 42 376 136Q402 216 401 326Z" />
<glyph unicode="&#xd3;" glyph-name="Oacute" d="M155 794L359 882L378 836L172 752L155 794ZM40 334Q40 412 50 469Q60 526 82 572Q127 665 250 665Q390 664 434 534Q460 459 460 358T450 196T418 88Q372 -10 250 -10Q130 -10 83 88Q40 177 40 334ZM401 326Q401
380 399 413T387 486T363 552T319 595T250 613T182 596T138 552T113 486Q99 424 99 349T104 227T125 135Q156 42 250 42Q346 42 376 136Q402 216 401 326Z" />
<glyph unicode="&#xd4;" glyph-name="Ocircumflex" d="M107 752L233 882H273L399 752H341L253 842L165 752H107ZM40 334Q40 412 50 469Q60 526 82 572Q127 665 250 665Q390 664 434 534Q460 459 460 358T450 196T418 88Q372 -10 250 -10Q130 -10 83 88Q40 177
40 334ZM401 326Q401 380 399 413T387 486T363 552T319 595T250 613T182 596T138 552T113 486Q99 424 99 349T104 227T125 135Q156 42 250 42Q346 42 376 136Q402 216 401 326Z" />
<glyph unicode="&#xd5;" glyph-name="Otilde" d="M379 859L404 826Q353 771 320 771T249 798T189 825T123 784L95 818Q151 872 187 872T262 846T318 819T379 859ZM40 334Q40 412 50 469Q60 526 82 572Q127 665 250 665Q390 664 434 534Q460 459 460 358T450 196T418
88Q372 -10 250 -10Q130 -10 83 88Q40 177 40 334ZM401 326Q401 380 399 413T387 486T363 552T319 595T250 613T182 596T138 552T113 486Q99 424 99 349T104 227T125 135Q156 42 250 42Q346 42 376 136Q402 216 401 326Z" />
<glyph unicode="&#xd6;" glyph-name="Odieresis" d="M117 797T117 812T127 838T153 849T179 838T189 812T179 786T153 775T127 786ZM310 797T310 812T320 838T346 849T372 838T383 812T373 786T347 775T321 786ZM40 334Q40 412 50 469Q60 526 82 572Q127 665 250
665Q390 664 434 534Q460 459 460 358T450 196T418 88Q372 -10 250 -10Q130 -10 83 88Q40 177 40 334ZM401 326Q401 380 399 413T387 486T363 552T319 595T250 613T182 596T138 552T113 486Q99 424 99 349T104 227T125 135Q156 42 250 42Q346 42 376 136Q402 216
401 326Z" />
<glyph unicode="&#xd7;" glyph-name="multiply" d="M402 108L247 263L92 108L58 141L214 297L58 452L92 485L247 330L402 485L436 452L280 297L436 141L402 108Z" />
<glyph unicode="&#xd8;" glyph-name="Oslash" d="M40 336Q40 582 146 642Q188 666 250 665Q334 665 385 616L413 666L450 644L413 580Q460 501 460 336Q460 79 353 15Q311 -10 250 -10Q161 -10 111 46L81 -8L45 14L85 85Q40 168 40 336ZM120 148L355 563Q317 613
250 613Q210 613 182 596T138 552T113 486Q99 424 99 319T120 148ZM378 518L142 100Q177 42 250 42Q346 42 376 136Q402 216 402 336T378 518Z" />
<glyph unicode="&#xd9;" glyph-name="Ugrave" d="M149 883L353 795L336 753L130 837L149 883ZM54 189V655H109V196Q109 42 250 42Q321 42 356 84T391 196V655H446V189Q446 92 396 41T248 -10T103 43T54 189Z" />
<glyph unicode="&#xda;" glyph-name="Uacute" d="M159 794L363 882L382 836L176 752L159 794ZM54 189V655H109V196Q109 42 250 42Q321 42 356 84T391 196V655H446V189Q446 92 396 41T248 -10T103 43T54 189Z" />
<glyph unicode="&#xdb;" glyph-name="Ucircumflex" d="M107 752L233 882H273L399 752H341L253 842L165 752H107ZM54 189V655H109V196Q109 42 250 42Q321 42 356 84T391 196V655H446V189Q446 92 396 41T248 -10T103 43T54 189Z" />
<glyph unicode="&#xdc;" glyph-name="Udieresis" d="M117 797T117 812T127 838T153 849T179 838T189 812T179 786T153 775T127 786ZM310 797T310 812T320 838Q330 849 346 849T372 838T383 812T373 786T346 775T320 786ZM54 189V655H109V196Q109 42 250 42Q321
42 356 84T391 196V655H446V189Q446 92 396 41T248 -10T103 43T54 189Z" />
<glyph unicode="&#xdd;" glyph-name="Yacute" d="M158 762L339 862L362 813L179 723L158 762ZM276 283V0H222V283L29 655H95L248 340H250L403 655H469L276 283Z" />
<glyph unicode="&#xde;" glyph-name="Thorn" d="M120 125V0H65V655H120V540H229Q282 540 323 517T386 458T416 377T415 288T382 208T319 148T227 125H120ZM229 490H120V175H227Q263 175 292 192T336 237T358 298T359 366T337 427T294 472T229 490Z" />
<glyph unicode="&#xdf;" glyph-name="germandbls" d="M69 0V469Q69 561 114 613T243 665T369 623T411 519V435Q350 429 313 421T262 397T249 352T267 305T350 266T439 218T463 135Q463 -9 317 -9Q268 -9 190 17L204 69Q279 42 321 42Q409 42 409 133Q409 168 393
185T314 221T223 270T195 349Q195 454 309 469L358 475V507Q358 615 240 615Q182 615 152 577T122 466V0H69Z" />
<glyph unicode="&#xe0;" glyph-name="agrave" d="M218 43Q255 43 298 66T362 110V229Q296 234 236 234T146 209T116 140Q116 43 218 43ZM217 -9Q144 -9 102 28T60 135T106 242Q152 281 228 281T362 275Q362 364 340 396T251 429T93 397L78 447Q171 481 246 481Q345
481 380 437T415 283V73L423 -3L372 -8L362 52Q339 32 297 12T217 -9ZM171 717L352 617L331 578L148 668L171 717Z" />
<glyph unicode="&#xe1;" glyph-name="aacute" d="M218 43Q255 43 298 66T362 110V229Q296 234 236 234T146 209T116 140Q116 43 218 43ZM217 -9Q144 -9 102 28T60 135T106 242Q152 281 228 281T362 275Q362 364 340 396T251 429T93 397L78 447Q171 481 246 481Q345
481 380 437T415 283V73L423 -3L372 -8L362 52Q339 32 297 12T217 -9ZM135 617L316 717L339 668L156 578L135 617Z" />
<glyph unicode="&#xe2;" glyph-name="acircumflex" d="M218 43Q255 43 298 66T362 110V229Q296 234 236 234T146 209T116 140Q116 43 218 43ZM217 -9Q144 -9 102 28T60 135T106 242Q152 281 228 281T362 275Q362 364 340 396T251 429T93 397L78 447Q171 481 246
481Q345 481 380 437T415 283V73L423 -3L372 -8L362 52Q339 32 297 12T217 -9ZM273 750L401 588H343L250 710L157 588H99L227 750H273Z" />
<glyph unicode="&#xe3;" glyph-name="atilde" d="M218 43Q255 43 298 66T362 110V229Q296 234 236 234T146 209T116 140Q116 43 218 43ZM217 -9Q144 -9 102 28T60 135T106 242Q152 281 228 281T362 275Q362 364 340 396T251 429T93 397L78 447Q171 481 246 481Q345
481 380 437T415 283V73L423 -3L372 -8L362 52Q339 32 297 12T217 -9ZM367 694L392 661Q342 606 308 606T236 633Q198 660 176 660T111 619L83 653Q140 707 176 707T250 681T306 654T367 694Z" />
<glyph unicode="&#xe4;" glyph-name="adieresis" d="M218 43Q255 43 298 66T362 110V229Q296 234 236 234T146 209T116 140Q116 43 218 43ZM217 -9Q144 -9 102 28T60 135T106 242Q152 281 228 281T362 275Q362 364 340 396T251 429T93 397L78 447Q171 481 246
481Q345 481 380 437T415 283V73L423 -3L372 -8L362 52Q339 32 297 12T217 -9ZM117 632T117 647T127 673T153 684T179 673T189 647T179 621T153 610T127 621ZM310 632T310 647T320 673Q330 684 346 684T372 673T383 647T373 621T346 610T320 621Z" />
<glyph unicode="&#xe5;" glyph-name="aring" d="M218 43Q255 43 298 66T362 110V229Q297 234 237 234T146 209T116 140Q116 43 218 43ZM217 -9Q144 -9 102 28T60 135T105 242T227 281T362 275Q362 364 340 396T251 429T93 397L78 447Q171 481 246 481Q345 481
380 437T415 283V73L423 -3L372 -8L362 52Q339 32 297 12T217 -9ZM297 724T325 699T354 629T326 559T250 533T174 558T145 628T173 698T249 724ZM187 628Q187 601 203 586T249 571T294 586T311 628Q311 685 249 685T187 628Z" />
<glyph unicode="&#xe6;" glyph-name="ae" d="M135 -10Q82 -10 51 28T19 131T55 232T156 269H221Q221 370 216 383T204 407Q194 423 155 423T52 392L34 440Q106 475 154 475T225 462T259 415Q286 480 355 480T455 430T485 269L482 217H274Q284 84 324 54Q342 40
363 41Q396 42 448 58L466 63L481 15Q416 -10 373 -10T302 6T255 60Q217 -10 135 -10ZM221 92V218H156Q118 218 97 196T75 134Q75 41 140 41Q180 42 208 74Q214 82 221 92ZM428 349T413 388T354 428T294 390T274 267H428Q428 349 413 388Z" />
<glyph unicode="&#xe7;" glyph-name="ccedilla" d="M359 320V419Q310 430 281 430Q209 430 174 379T138 238T174 96T281 43Q326 43 406 71L421 21Q342 -9 282 -9Q184 -9 133 56T81 239T132 418T282 481Q348 481 413 460V320H359ZM312 -57T337 -80T363 -148T338
-217T270 -242Q247 -242 207 -235L212 -192Q232 -197 259 -197Q312 -197 312 -148Q312 -101 259 -101Q241 -101 216 -106L210 -65Q242 -57 277 -57Z" />
<glyph unicode="&#xe8;" glyph-name="egrave" d="M67 352T114 416T253 481T388 421T433 261L430 211H124Q129 136 164 90T260 43T405 72L420 22Q339 -9 268 -9Q170 -9 119 56T67 237ZM257 430Q131 430 124 261H376Q376 430 257 430ZM171 717L352 617L331 578L148
668L171 717Z" />
<glyph unicode="&#xe9;" glyph-name="eacute" d="M67 352T114 416T253 481T388 421T433 261L430 211H124Q129 136 164 90T260 43T405 72L420 22Q339 -9 268 -9Q170 -9 119 56T67 237ZM257 430Q131 430 124 261H376Q376 430 257 430ZM143 617L324 717L347 668L164
578L143 617Z" />
<glyph unicode="&#xea;" glyph-name="ecircumflex" d="M67 352T114 416T253 481T388 421T433 261L430 211H124Q129 136 164 90T260 43T405 72L420 22Q339 -9 268 -9Q170 -9 119 56T67 237ZM257 430Q131 430 124 261H376Q376 430 257 430ZM273 750L401 588H343L250
710L157 588H99L227 750H273Z" />
<glyph unicode="&#xeb;" glyph-name="edieresis" d="M67 352T114 416T253 481T388 421T433 261L430 211H124Q129 136 164 90T260 43T405 72L420 22Q339 -9 268 -9Q170 -9 119 56T67 237ZM257 430Q131 430 124 261H376Q376 430 257 430ZM117 632T117 647T127 673T153
684T179 673T189 647T179 621T153 610T127 621ZM310 632T310 647T320 673T346 684T372 673T383 647T373 621T347 610T321 621Z" />
<glyph unicode="&#xec;" glyph-name="igrave" d="M154 617L335 717L358 668L175 578L154 617ZM123 425V475H292V50H408V0H115V50H239V425H123Z" />
<glyph unicode="&#xed;" glyph-name="iacute" d="M123 425V475H292V50H408V0H115V50H239V425H123ZM148 617L329 717L352 668L169 578L148 617Z" />
<glyph unicode="&#xee;" glyph-name="icircumflex" d="M123 425V475H292V50H408V0H115V50H239V425H123ZM273 750L401 588H343L250 710L157 588H99L227 750H273Z" />
<glyph unicode="&#xef;" glyph-name="idieresis" d="M127 632T127 647T137 673T163 684T189 673T199 647T189 621T163 610T137 621ZM310 632T310 647T320 673Q330 684 346 684T372 673T383 647T373 621T346 610T320 621ZM123 425V475H292V50H408V0H115V50H239V425H123Z" />
<glyph unicode="&#xf0;" glyph-name="eth" d="M267 589L167 519L142 555L230 617Q202 637 140 671L163 715Q221 687 274 647L366 712L391 676L309 618Q380 554 410 470T441 270Q445 126 398 59T250 -9Q59 -9 59 236T250 481Q317 481 365 448Q339 527 267 589ZM116
429T116 236T250 43Q320 43 351 90T385 238T357 383T250 429Q116 429 116 236Z" />
<glyph unicode="&#xf1;" glyph-name="ntilde" d="M129 475L131 435Q228 481 292 481T392 437T429 317V0H376V317Q376 366 352 398Q328 429 280 429T131 385V0H78V475H129ZM380 694L405 661Q354 606 320 606T249 633T190 660T124 619L96 653Q152 707 188 707T262
681T319 654T380 694Z" />
<glyph unicode="&#xf2;" glyph-name="ograve" d="M59 481T250 481T441 236T250 -9T59 236ZM116 429T116 236T250 43T384 236T250 429ZM171 717L352 617L331 578L148 668L171 717Z" />
<glyph unicode="&#xf3;" glyph-name="oacute" d="M59 481T250 481T441 236T250 -9T59 236ZM116 429T116 236T250 43T384 236T250 429ZM151 617L332 717L355 668L172 578L151 617Z" />
<glyph unicode="&#xf4;" glyph-name="ocircumflex" d="M59 481T250 481T441 236T250 -9T59 236ZM116 429T116 236T250 43T384 236T250 429ZM273 750L401 588H343L250 710L157 588H99L227 750H273Z" />
<glyph unicode="&#xf5;" glyph-name="otilde" d="M59 481T250 481T441 236T250 -9T59 236ZM116 429T116 236T250 43T384 236T250 429ZM381 694L406 661Q356 606 322 606T250 633Q212 660 190 660T125 619L97 653Q154 707 190 707T264 681T320 654T381 694Z" />
<glyph unicode="&#xf6;" glyph-name="odieresis" d="M59 481T250 481T441 236T250 -9T59 236ZM116 429T116 236T250 43T384 236T250 429ZM117 632T117 647T127 673T153 684T179 673T189 647T179 621T153 610T127 621ZM310 632T310 647T320 673Q330 684 346 684T372
673T383 647T373 621T346 610T320 621Z" />
<glyph unicode="&#xf7;" glyph-name="divide" d="M288 92T247 92T206 137T247 182T288 137ZM288 380T247 380T206 425T247 470T288 425ZM35 261V307H465V261H35Z" />
<glyph unicode="&#xf8;" glyph-name="oslash" d="M250 481Q308 481 348 458L381 515L424 489L388 425Q441 365 441 236Q441 -9 250 -9Q194 -9 153 13L121 -43L79 -17L114 44Q59 105 59 236Q59 481 250 481ZM116 236Q116 144 144 98L321 410Q291 429 250 429Q116
429 116 236ZM384 236Q384 325 357 372L180 61Q207 43 250 43Q384 43 384 236Z" />
<glyph unicode="&#xf9;" glyph-name="ugrave" d="M374 0L372 41Q276 -9 212 -9T111 35T74 155V475H127V155Q127 106 150 75T222 43T372 93V475H425V0H374ZM171 717L352 617L331 578L148 668L171 717Z" />
<glyph unicode="&#xfa;" glyph-name="uacute" d="M374 0L372 41Q276 -9 212 -9T111 35T74 155V475H127V155Q127 106 150 75T222 43T372 93V475H425V0H374ZM157 617L338 717L361 668L178 578L157 617Z" />
<glyph unicode="&#xfb;" glyph-name="ucircumflex" d="M374 0L372 41Q276 -9 212 -9T111 35T74 155V475H127V155Q127 106 150 75T222 43T372 93V475H425V0H374ZM273 750L401 588H343L250 710L157 588H99L227 750H273Z" />
<glyph unicode="&#xfc;" glyph-name="udieresis" d="M374 0L372 41Q276 -9 212 -9T111 35T74 155V475H127V155Q127 106 150 75T222 43T372 93V475H425V0H374ZM117 632T117 647T127 673T153 684T179 673T189 647T179 621T153 610T127 621ZM310 632T310 647T320
673Q330 684 346 684T372 673T383 647T373 621T346 610T320 621Z" />
<glyph unicode="&#xfd;" glyph-name="yacute" d="M53 475H113L254 71H262L388 475H448L264 -81Q238 -160 210 -182T94 -206V-155Q150 -154 169 -139T204 -76L227 -7L53 475ZM148 617L329 717L352 668L169 578L148 617Z" />
<glyph unicode="&#xfe;" glyph-name="thorn" d="M77 -192V655H127V428Q200 481 266 481Q355 481 403 416T452 237T399 57T249 -9Q193 -9 130 18V-192H77ZM398 324T363 377T265 430T130 372V72Q151 62 187 52T247 42Q318 42 358 95T398 236Z" />
<glyph unicode="&#xff;" glyph-name="ydieresis" d="M53 475H113L254 71H262L388 475H448L264 -81Q238 -160 210 -182T94 -206V-155Q150 -154 169 -139T204 -76L227 -7L53 475ZM117 632T117 647T127 673T153 684T179 673T189 647T179 621T153 610T127 621ZM310
632T310 647T320 673Q330 684 346 684T372 673T383 647T373 621T346 610T320 621Z" />
<glyph unicode="&#x2013;" glyph-name="endash" d="M70 261V305H429V261H70Z" />
<glyph unicode="&#x2014;" glyph-name="emdash" d="M0 261V305H500V261H0Z" />
<glyph unicode="&#x2018;" glyph-name="quoteleft" d="M310 661L252 454L188 471L268 672L310 661Z" />
<glyph unicode="&#x2019;" glyph-name="quoteright" d="M189 472L247 679L311 662L231 461L189 472Z" />
<glyph unicode="&#x201c;" glyph-name="quotedblleft" d="M369 656L311 449L247 466L327 667L369 656ZM226 674L168 467L104 484L184 685L226 674Z" />
<glyph unicode="&#x201d;" glyph-name="quotedblright" d="M117 475L175 682L239 665L159 464L117 475ZM260 457L318 664L382 647L302 446L260 457Z" />
<glyph unicode="&#x2022;" glyph-name="bullet" d="M278 331V267H220V331H278Z" />
<glyph unicode="&#x2039;" glyph-name="guilsinglleft" d="M142 248L339 417V352L194 226L339 103V39L142 208V248Z" />
<glyph unicode="&#x203a;" glyph-name="guilsinglright" d="M142 417L339 248V208L142 39V103L287 226L142 352V417Z" />
</font>
</defs>
</svg>
